Emiliens :] Index du Forum
FAQ  Profil  Se connecter pour vérifier ses messages privés  Groupes  Membres  Rechercher  S’enregistrer  Connexion
Se connecter pour vérifier ses messages privés
Busty Riding Academy - Christy Marks And Terry Nova.avi

 
Poster un nouveau sujet   Répondre au sujet    Emiliens :] Index du Forum -> Les nouvelles :] -> Autre :D
Sujet précédent :: Sujet suivant  
Auteur Message
palybenda
Esclave

Hors ligne

Inscrit le: 10 Avr 2016
Messages: 36
Localisation: Lyon

MessagePosté le: Sam 30 Avr - 14:20 (2016)    Sujet du message: Busty Riding Academy - Christy Marks And Terry Nova.avi Répondre en citant




Busty Riding Academy - Christy Marks And Terry Nova.avi > urlin.us/1zrpk







Busty Riding Academy - Christy Marks And Terry Nova.avi, facebook password decryptor linux


aecd9d6ae7
*series torrents FILENAME SIZE SEEDS PEERS ADDED UPD The Flash 2014 S02E19 HDTV x264-LOL[ettv] 210.5 MB 15535 1754 1 day 19 hours Arrow S04E19 HDTV x264-LOL[rartv] 216.07 MB 13874 1962 1 day 19 hours DCs.Legends.of.Tomorrow.S01E13.HDTV.x264-LOL[ettv] 256.5 MB 13035 2709 1 day 2 hours Game of Thrones S06E01 HC SUBFRENCH HDTV XviD-ZT avi 541.32 MB 12260 1134 3 days 2 days The.Big.Bang.Theory.S09E22.HDTV.x264-LOL[ettv] 122.5 MB 12871 2624 1 day 3 hours Greys Anatomy S12E21 HDTV x264-LOL[rartv] 252.07 MB 8479 1254 1 day 4 hours Lucifer.S01E13.HDTV.x264-LOL[ettv] 206.5 MB 9706 792 3 days 1 day Marvels.Agents.of.S.H.I.E.L.D.S03E18.HDTV.x264-KILLERS[ettv] 256.5 MB 8875 1872 2 days 1 day The.Blacklist.S03E20.HDTV.x264-KILLERS[ettv] 258.5 MB 8807 4416 22 hours 15 hours Arrow.S04E19.HDTV.x264-LOL[ettv] 216.5 MB 8287 1294 2 days 1 day . A Tip Of The Hat EUR 4 monthly subscription or one time payment cancelable any time "Tell the chef, the beer is on me." As Long As It's Yummy' EUR 35 yearly subscription or one time payment cancelable any time "Basically the price of a night on the town!" Infinity23&nbsp&nbspof&nbsp&nbsp200&nbsp&nbspsold EUR 199.99999. Click here to check if anything new just came in. *movies torrents FILENAME SIZE SEEDS PEERS ADDED UPD Deadpool 2016 1080p WEB-DL x264 AC3-JYK 2.84 GB 6327 4073 3 days 2 days Deadpool 2016 1080p WEB-DL AAC2 0 H264-RARBG 3.49 GB 6158 4115 3 days 1 day Eddie.The.Eagle.2016.HC.HDRip.XviD.AC3-EVO 1.41 GB 4447 2357 1 day 6 hours Batman V Superman Dawn of Justice 2016 HD-TC x264 AC3-CPG 2.19 GB 4470 5364 1 day 19 hours Deadpool 2016 1080p BluRay x264 DTS-JYK 2.73 GB 3487 3781 2 days 1 day Deadpool.2016.HDRip.XViD-ETRG 707.3 MB 3318 2290 4 days 3 days Monsoon Mangoes [2016] Malayalam DVDRip x264 800MB ESubs.mkv 798.3 MB 4355 2392 15 hours 13 hours Deadpool 2016 1080p BluRay x264-SPARKS[rarbg] 7.7 GB 3167 3392 1 day 18 hours The Benefactor 2015 FRENCH BDRip XviD-EXTREME 697.32 MB 3119 319 1 day 20 hours Lost Boy 2015 FRENCH WEBRip XviD-ViVi avi 699.07 MB 3114 570 15 hours 13 hours . Islphilo About Accounts My stream My TV My friends Newer posts are loading. maybe I'll even get a shirt?" (there will be limited edition shirts for two and other goodies for each supporter as soon as we sold the 200) All plans include: No ads displayed on the blog . Kesha) (Original Mix) - Single [2016] (320) {"WizzardOlaf"} 8.71 MB 195 14 18 hours 15 hours Sixx:A.M. Size:262MB.

*misc torrents FILENAME SIZE SEEDS PEERS ADDED UPD Windows Server 2012 System Administration Get an IT Job! 435.32 MB 124 47 2 days 1 day Howard Stern Show APR 25 2016 Mon (Best Of) 189.32 MB 91 13 4 days 3 days SEO 2016 in 80 Minutes 129.32 MB 78 23 2 days 1 day FXPHD - CD4221 Using Arnold in Cinema 4D (Class N. - Prayers for the Damned, Vol. Downloads:3. Sample info: Duration: 00:17:42.42, start: 0.000000, bitrate: 2072 kb/s Stream #0.0: Video: mpeg4 (Advanced Simple Profile), yuv420p, 704x528 [PAR 1:1 DAR 4:3], 29.97 tbr, 29.97 tbn, 29.98 tbc Stream #0.1: Audio: ac3, 48000 Hz, stereo, s16, 192 kb/s. Seeders, leechers and torrent status is updated everyday. Tags: Busty Riding Academy Christy Marks and Terry Novaavi # React ← Front page . *ebooks torrents FILENAME SIZE SEEDS PEERS ADDED UPD Marvel Week+ (04-27-2016) (- Nem -) 947.3 MB 687 359 1 day 15 hours Assorted Magazines Bundle- April 28 2016 (True PDF) 955.3 MB 594 591 2 days 1 day DC Week+ (04-27-2016) (aka DC YOU Week 48) (NO Teen Titans #19) (- Nem -) 826.3 MB 567 288 1 day 15 hours How to make your penis bigger and stronger naturally without pills SSEC.pdf 1.1 MB 346 23 4 days 3 days The Little Bit Naughty Book of Wild Sex Positions -- SSEC 16.98 MB 342 119 2 days 1 day 9 Secrets of Successful Meditation The Ultimate Key to Mindfulness, Inner Calm & Joy by Samprasad Vinod and B.K.S. 262MBBusty Riding Academy - Christy Marks and Terry Nova.avi.

bollywood hd videos muvis 2013DHT 11 proteus model300 full movie in hindi hd free downloadtimi se folla asu mama padrinos magicos porno xxxdownload rhel 5.8 32 bit isoCyberGhost VPN Premium Plus.rardownload facebook application for ios 4.1CompanionLink 5 for Outlook.rarfacebook chat always says 1meurotic inxtc tv blondie avi


Revenir en haut
Publicité






MessagePosté le: Sam 30 Avr - 14:20 (2016)    Sujet du message: Publicité

PublicitéSupprimer les publicités ?
Revenir en haut
Montrer les messages depuis:   
Poster un nouveau sujet   Répondre au sujet    Emiliens :] Index du Forum -> Les nouvelles :] -> Autre :D Toutes les heures sont au format GMT + 1 Heure
Page 1 sur 1

 
Sauter vers:  

Index | Panneau d’administration | Creer un forum | Forum gratuit d’entraide | Annuaire des forums gratuits | Signaler une violation | Conditions générales d'utilisation
Powered by phpBB © 2001 - 2005 phpBB Group
Traduction par : phpBB-fr.com
Template Diddle v. 2.0.18 by hedonism